<?xml version="1.0" standalone="no"?>
<!DOCTYPE svg PUBLIC "-//W3C//DTD SVG 1.1//EN" "http://www.w3.org/Graphics/SVG/1.1/DTD/svg11.dtd">
<svg xmlns="http://www.w3.org/2000/svg">
<metadata>Generated by Fontastic.me</metadata>
<defs>
<font id="c49icons" horiz-adv-x="512">
<font-face font-family="c49icons" units-per-em="512" ascent="480" descent="-32"/>
<missing-glyph horiz-adv-x="512" />

<glyph glyph-name="area-1" unicode="&#99;" d="M458 104c-5 0-9 4-9 9 0 5 4 9 9 9l16 0 0 48-16 0c-5 0-9 4-9 9 0 5 4 9 9 9l16 0 0 49-16 0c-5 0-9 4-9 9 0 4 4 8 9 8l16 0 0 49-16 0c-5 0-9 4-9 9 0 5 4 9 9 9l16 0 0 48-16 0c-5 0-9 4-9 9 0 5 4 9 9 9l16 0 0 87-436-436 87 0 0 16c0 5 4 9 9 9 5 0 9-4 9-9l0-16 48 0 0 16c0 5 4 9 9 9 5 0 9-4 9-9l0-16 49 0 0 16c0 5 4 9 8 9 5 0 9-4 9-9l0-16 49 0 0 16c0 5 4 9 9 9 5 0 9-4 9-9l0-16 48 0 0 16c0 5 4 9 9 9 5 0 9-4 9-9l0-16 66 0 0 66z m-53 3l-199 0 199 199z"/>
<glyph glyph-name="area-2" unicode="&#100;" d="M54 298l36 0 0-52-36 0z m0 29l36 0 0 52-36 0z m0-161l36 0 0 51-36 0z m243 294l0-36 51 0 0 36z m-81-36l52 0 0 36-52 0z m-81 0l52 0 0 36-52 0z m-81 36l0-52 36 0 0 16 16 0 0 36z m386-105l34 0-69 119-69-119 35 0 0-214-214 0 0 35-119-69 119-69 0 34 283 0z"/>
<glyph glyph-name="area-3" unicode="&#101;" d="M440 72l-283 0 0-34-119 69 119 69 0-35 214 0 0 214-35 0 69 119 69-119-34 0z m-267 131l0-46 49 0c0 26 0 52 0 77 23 0 45 0 68 0 0-25 0-51 0-77l65 0 0 167c-32 26-65 53-97 80-1 0-1 1-2 1-8-6-15-12-23-18-42-36-85-71-128-106-2-2-3-3-3-5 0-38 0-76 0-114l48 27z m-114 74c4-5 8-5 13-2l184 154 71-59 22 37-74 61c-13 9-29 8-40-2l-64-53 0 50c0 8-3 11-11 11l-47 0c-8 0-11-3-11-11l0-104-57-51c-5-3-5-8-2-13 6-6 11-12 16-18z"/>
<glyph glyph-name="area-4" unicode="&#102;" d="M440 72l-283 0 0-34-119 69 119 69 0-35 214 0 0 214-35 0 69 119 69-119-34 0z m-329 226c1-2 2-3 2-5 0-30 26-53 56-50 5 1 10 3 15 5 2 0 3 0 4-1 7-4 24-34 31-37 2-1 7-8 7-9 1-21 3-11-1-32 0-4-1-9-2-13l40 0c-1 5-2 11-3 16-2 11-2 15-1 26 1 8 9 19 14 24 5 4 7 10 12 15 2-2 6-3 9-5 20-7 42-2 56 13 2 3 4 6 6 9l0 86-45 0 13 22 32 57c-3 1-7 2-11 3-3 1-5 2-6 5-6 13-16 22-30 26-13 5-27 3-39-3-1-1-1-1-2-1-2 2-4 5-6 8-8 9-19 15-31 17-1 0-2 0-2 0-4 0-8 0-11 0-2 0-5-1-7-1-19-6-32-19-36-38-1-2-2-3-4-3-17 1-31-5-42-18-8-10-12-21-12-34 0-1 0-2-1-3-8-6-13-12-17-20-8-17-7-33 3-49 2-4 6-7 9-10z m142-47c0 4 3 9 3 13 1 5 2 7 6 8 2-5 3-10 5-14 2-4 5-8 8-13-6-4-18-20-22-29-1-2-3 0-4 3 0 4 3 27 4 32z m-8 23c0 0-2-31-5-38-2-5-1-4-4 1-4 7-11 34-12 37 9-6 11-1 21 0z m-42-11c2 2 3 4 5 7 3-7 22-47 26-53-5-2-31 35-36 40 2 2 4 4 5 6z"/>
<glyph glyph-name="nextel-1" unicode="&#104;" d="M380 242c-3 0-4-1-3-4 4-10 19-13 26-5 1 1 3 2 4 2l15 0c3 0 4-1 3-5-2-8-8-15-16-18-21-9-54-1-57 33 0 7 0 13 2 19 4 19 19 29 38 28 20 0 35-14 37-35 0-3 0-6 0-9 0-5 0-6-5-6-7 0-36 0-44 0z m10 17c4 0 7 0 11 0 3 0 4 1 3 4-2 6-7 10-14 10-7-1-12-4-13-10-1-3 0-4 2-4 4 0 8 0 11 0z m-241-17c-3 0-4-1-3-5 4-9 19-12 26-4 1 1 2 2 4 2 5 0 10 0 15 0 3 0 4-1 3-5-4-13-13-19-26-21-28-4-50 14-47 46 1 7 3 13 6 19 7 14 19 19 34 18 21-1 35-15 37-36 0-3 0-7 0-10 0-3-1-4-4-4z m10 17c4 0 8 0 11 0 2 0 4 1 3 3-1 7-6 10-13 11-7 0-13-4-14-10-1-3 0-4 3-4 3 0 7 0 10 0z m-100 29c-1 1-2 3-4 3-4 0-9 0-14 0-2 0-3-1-3-4 0-24 0-49 0-73 0-3 1-4 3-4 5 0 10 0 14 0 5 0 6 1 6 6l0 38c0 13 7 20 19 18 6 0 9-4 10-9 0-3 0-5 0-8l0-40c0-3 2-5 5-5 5 1 10 0 14 0 3 0 5 2 5 4 0 16 0 32-1 48 0 20-14 32-34 30-7 0-12-3-18-8-1 2-1 3-2 4z m249-55c0-12 7-21 18-23 7-1 13 0 20 0 1 0 3 2 3 3 0 4 0 9 0 13 0 3-1 4-4 4-3 0-5 0-8 0-4 0-6 1-6 5l0 33c0 3 0 4 4 4 3 0 6 0 9 0 5 0 5 0 6 5 0 3 0 6 0 9-1 4-1 5-5 5-4 0-7 0-10 0-4 0-4 0-4 3 0 5 0 9 0 13 0 3-1 4-4 4-5 0-10 0-15 0-3 0-4-1-4-4 0-4 0-8 0-12 0-3-1-4-4-4-1 0-2 0-3 0-3 0-4-1-4-4 0-4 0-8 0-11 0-3 1-4 4-4 1 0 2 0 3 0 4 0 4 0 4-4z m128 1c0-12 7-22 18-24 6-1 12 0 18 0 0 0 2 2 2 3l0 12c0 4-1 5-5 5-9 0-10 0-10 9l0 82c0 4 0 5-5 5-4 0-9 0-13 0-4 0-5-1-5-5z m-214-17c7 9 14 19 21 28 4 5 4 7 0 11-7 9-14 19-21 28-4 5-7 7-14 7-9 0-8 1-8-9 0-4 1-8 4-12 4-5 8-11 13-16 2-3 2-4 0-7-5-5-9-11-13-16-3-4-4-7-4-12 0-10-1-9 9-9 8 0 8 0 13 7z m50 68c-7-10-15-19-22-28-4-6-4-7 0-12 8-10 15-19 22-29 3-4 6-6 11-6 12 0 10-1 10 10 0 4-1 7-4 11-4 5-8 11-12 16-3 3-2 5 0 7 4 5 8 11 12 16 3 4 4 7 4 12 0 9 1 9-10 9-5 0-8-2-11-6z"/>
<glyph glyph-name="oi-1" unicode="&#105;" d="M348 253c0 9-1 20-3 31-1 7-3 14-6 21-2 4-4 7-7 10-3 2-6 3-10 2-2-1-4-2-6-4-3-4-5-9-6-14-4-11-6-23-7-35 0-8 0-17 0-26 1-8 1-17 3-25 2-6 4-13 8-18 2-4 5-7 9-8 1-1 1-1 2 0 2 0 4 1 5 2 3 1 5 4 6 6 4 6 6 12 8 19 3 12 4 25 4 39z m-2 103c0 12-9 22-21 22-12-1-22-10-22-23 0-12 10-22 22-22 12 0 21 10 21 23z m-62-88c-3 12-8 23-17 32-10 10-21 16-34 18-8 1-15 0-22-1-15-4-27-13-35-26-7-11-10-23-11-35-1-9 0-17 2-25 4-13 10-23 21-31 8-6 16-9 25-11 4-1 8-2 12-2 5 0 11 1 16 2 17 4 30 14 38 30 5 9 7 20 7 31 0 6-1 12-2 18z m-59-52c-15 0-27 16-27 35 0 20 12 36 27 36 14 0 27-16 27-36 0-19-13-35-27-35z"/>
<glyph glyph-name="sell-1" unicode="&#106;" d="M450 331l25 32-25 32-301 0 0 55-32 24-32-24 0-55-48 0 0-64 48 0 0-293 64 0 0 293 74 0 0-49-45 0 0-199 272 0 0 199-45 0 0 49z m-80-49l-111 0 0 49 111 0 0-49z"/>
<glyph glyph-name="area-5" unicode="&#107;" d="M325 325l0-246-246 0 0 246 246 0m31 41l-308 0c-6 0-10-4-10-10l0-308c0-6 4-10 10-10l308 0c6 0 10 4 10 10l0 308c0 6-4 10-10 10z m6 68l-71 40 0-20-183 0 0 20-70-40 70-41 0 20 183 0 0-20z m72-72l40-71-20 0 0-183 20 0-40-70-41 70 20 0 0 183-20 0z"/>
<glyph glyph-name="tim-2" unicode="&#108;" d="M304 267c0-2 0-3 0-5l0-65c0-4-1-6-4-6l-21 0c-3 0-4 2-4 5l0 120c0 3 1 4 4 4l27 0c3 0 4-2 5-4 10-25 20-49 30-73 0-1 0-1 1-2 1 3 2 5 2 8 10 22 19 45 28 67 1 2 3 4 5 4 0 0 17 0 25 0 3 0 4-1 4-4l0-120c0-3-2-5-4-5l-21 0c-3 0-4 2-4 5l0 67c0 1 0 3 0 4-1 0-1 0-1 0-1-2-2-3-2-5-6-15-13-31-19-46-1-3-2-4-5-4l-18 0c-3 0-4 2-6 4-7 17-14 34-21 51 0 0-1 0-1 0z m-166-70c0-4 2-6 5-6 7 0 13 0 19 0 4 0 6 2 6 6 0 0 0 94 0 96l27 0c4 0 5 1 5 5l0 19c0 3-1 4-4 4l-86 0c-3 0-4-2-4-4l0-18c0-5 1-6 6-6l26 0c1-2 0-96 0-96z m112 119c0 3-1 4-4 4l-21 0c-3 0-4-1-4-4l0-120c0-3 1-5 3-5l22 0c3 0 4 2 4 6z"/>
<glyph glyph-name="vivo-1" unicode="&#109;" d="M404 205c-2 0-3 1-4 1-8 0-15 3-21 7-11 6-19 16-23 28-1 5-2 10-2 15 1 20 11 35 29 44 5 3 10 4 16 5 18 2 33-4 45-18 6-7 10-15 11-24 0-1 1-2 1-2 0-4 0-7 0-11 0-1-1-3-1-4-2-12-9-22-19-30-8-6-16-9-26-10-1 0-2-1-4-1-1 0-2 0-2 0z m21 50c0 11-9 20-20 20-11 0-20-8-20-20 0-11 9-20 20-20 11 0 20 9 20 20z m-369 35c0 0 0 0 0-1 1-1 1-3 2-4 13-23 26-47 40-70 1-3 4-5 7-6 5-1 10-1 15 0 4 1 7 3 9 7 13 23 26 46 39 69 2 2 2 4 2 6 0 4-2 7-5 9-3 2-7 3-10 5-6 2-11 1-15-4-1-2-3-4-4-6-7-15-15-30-22-44 0-1 0-1-1-2 0 1 0 1 0 1-7 13-13 26-19 38-2 4-4 8-7 12-3 6-10 8-16 5-3-2-6-3-9-5-3-1-5-4-5-7 0 0-1-1-1-2 0 0 0-1 0-1z m145 66c-1 0-2 0-3-1-9-2-16-11-14-21 1-10 9-18 21-17 11 2 18 12 17 22-1 8-8 15-16 16-1 1-2 1-2 1-1 0-2 0-3 0z m90-105c-7 13-14 26-20 39-2 3-4 7-6 10-3 6-9 8-16 5-3-2-6-3-9-5-6-2-7-10-4-15 1-3 3-5 4-8 12-21 24-41 36-62 1-3 4-5 8-6 4-1 9-1 13 0 5 0 8 3 10 7 11 18 21 36 31 54 3 5 6 10 9 15 3 5 1 12-4 15-3 2-7 3-10 5-6 2-11 1-15-4-1-1-2-3-3-5-8-15-15-30-23-45 0-1 0-1-1-2 0 1 0 1 0 2z m-72 40c0 2 0 3 0 4-1 6-6 9-11 9-4 0-8 0-12 0-3 0-6-1-8-4-2-3-3-6-3-9 0-24 0-48 0-71 0-2 0-3 1-4 1-6 5-10 11-10 4 0 7 0 11 0 3 0 6 1 8 3 2 3 3 6 3 9 0 13 0 25 0 37 0 12 0 24 0 36z"/>
<glyph glyph-name="area-6" unicode="&#110;" d="M433 433l0-354-354 0 0 354 354 0m31 41l-416 0c-6 0-10-5-10-10l0-416c0-6 4-10 10-10l416 0c6 0 10 4 10 10l0 416c0 5-4 10-10 10z m-62-364l-21 78-14-14-193 193 14 14-78 21 21-78 14 14 193-193-14-14z"/>
<glyph glyph-name="whatsapp-1" unicode="&#111;" d="M113 298c-2 0-2-1-3-2-2-11-4-21-7-31-1-4-2-9-3-13-1 1-1 2-1 2-3 14-7 28-10 42 0 1-1 2-2 2-4 0-8 0-12 0-4-16-8-31-12-45-1 3-2 6-3 10-2 11-5 22-7 33-1 1-1 2-2 2-4 0-9 0-13 0 1-5 2-9 3-13 5-17 9-35 14-52 0-1 1-2 1-2 5 0 9 0 14 0 4 15 7 30 11 45 0 0 0 0 1 0 0-1 0-2 0-3 4-13 7-26 10-40 1-2 1-2 3-2 3 0 7 0 10 0 2 0 2 1 3 2 4 17 9 34 13 50 2 5 3 10 4 15-4 0-8 0-12 0z m233-2c0 1-1 2-2 2-4 0-7 0-11 0-2 0-3-1-3-3-7-17-13-34-20-50-1-5-3-9-5-14 5 0 10 0 14 0 0 0 1 1 1 2 2 4 3 7 4 11 1 1 1 2 3 2 7 0 14 0 21 0 2 0 2 0 3-2 1-4 2-8 4-11 0-1 1-2 1-2 5 0 9 0 14 0 0 1 0 1 0 1-8 21-16 43-24 64z m-17-39c3 8 6 16 9 25 3-9 5-17 8-25-6 0-11 0-17 0z m56 17c0 0 0 0 0 0 0 1 0 3 0 5-4 0-8 0-12 0 0-22 0-43 0-65 4 0 8 0 13 0 0 8 0 15 0 23 0-1 0-1 1-1 6-8 22-9 30 2 6 9 6 26-1 35-7 10-25 10-31 1z m21-29c-1-4-5-5-9-5-4 0-8 1-10 5-3 7-3 13 0 20 2 4 5 6 9 6 5 0 8-2 10-6 3-5 3-14 0-20z m63 28c-8 10-25 10-31 1 0 0 0 0 0 0 0 1 0 3 0 5-4 0-8 0-12 0 0-22 0-43 0-65 4 0 8 0 12 0 0 8 0 15 0 23 1-1 1-1 1-1 7-8 23-9 31 2 6 9 6 26-1 35z m-10-28c-2-4-5-5-9-5-4 0-8 1-10 5-3 7-3 13 0 20 2 4 5 6 9 6 4 0 8-2 10-6 3-5 2-14 0-20z m-287 25c-1 4-4 8-8 9-6 2-11 2-16 0-2-2-4-4-7-6 0 8 0 16 0 24-4 0-8 0-13 0 0-22 0-44 0-66 5 0 9 0 13 0 0 1 0 1 0 1 0 8 0 16 0 25 0 2 1 5 2 8 1 4 5 5 10 5 4 0 6-2 7-6 0-2 0-4 0-6 0-8 0-16 0-24 0-1 0-2 0-3 5 0 9 0 13 0 0 1 0 1 0 2 0 10 0 19 0 29 0 3 0 5-1 8z m53-3c0 5-3 9-8 11-4 1-7 2-11 2-6 1-12 0-17-3-5-2-8-6-8-12 4 0 8 0 12 0 2 2 3 4 4 5 4 3 8 2 11 1 3-1 3-4 3-6 0-2-1-4-3-4-2-1-4-1-6-1-4-1-9-2-13-3-6-1-10-6-10-13 0-7 4-12 10-13 8-2 15-1 22 4 0 0 1 0 1 0 0-1 0-2 0-2 1-1 1-2 2-2 4 0 8 0 11 0 0 4 0 8 0 11-1 8-1 17 0 25z m-14-21c-1-5-5-8-11-7-1 0-2 0-2 0-3 0-5 2-5 4-1 3 0 6 3 7 2 1 5 2 7 2 3 1 5 1 8 2 0-2 0-5 0-8z m85 12c-2 1-5 2-7 2-4 1-8 2-11 4-2 0-3 2-3 4 0 1 1 2 3 3 6 2 12 0 14-6 4 0 8 0 12 0-1 6-3 10-8 13-9 4-18 4-27 0-6-3-7-8-7-14 0-5 3-8 8-10 1 0 2 0 3-1 5-1 10-2 15-4 2 0 4-2 4-4 0-3-1-5-4-6-7-2-13 1-15 8-4 0-8 0-12 0 0-7 3-11 8-14 6-3 13-4 20-3 3 1 7 2 10 4 5 3 7 8 6 14 0 6-4 8-9 10z m-47-11c0 7 0 14 0 21 0 1 0 2 0 3 4 0 7 0 10 0 0 3 0 5 0 8-3 0-7 0-10 0 0 5 0 10 0 15-4 0-8 0-13 0 0-5 0-10 0-15-3 0-5 0-8 0 0-3 0-6 0-9 3 0 5 0 8 0 0-1 0-2 0-3 0-8 0-17 0-26 0-5 3-8 8-10 5-1 10-1 15 0 0 3 0 7 0 10-1 0-3 0-4 0-4 0-6 1-6 6z"/>
<glyph glyph-name="bathroom-1" unicode="&#112;" d="M327 283c10 0 19-9 19-19 0-11-9-19-19-19l-232 0c-10 0-19 8-19 19 0 10 9 19 19 19z m-19 191c-53 0-99-33-118-79-49-9-87-49-92-99l226 0c-5 47-39 85-84 97 15 22 40 36 68 36 46 0 83-37 83-82l0-308 45 0 0 308c0 70-57 127-128 127z m-113-279l1 20c0 9-7 17-16 17-9 0-16-7-17-15l0-20c-1-9 6-17 15-17 0 0 1 0 1 0 8 0 16 7 16 15z m-3-75l1 29c0 9-7 16-15 17-9 0-17-7-17-16l-1-29c-1-9 6-17 15-17 0 0 0 0 1 0 8 0 15 7 16 16z m-3-67l1 20c0 9-7 16-16 17-9 0-16-7-16-16l-1-20c-1-9 6-16 15-16 1 0 1 0 1 0 9 0 16 6 16 15z m48 127c9 0 16 8 15 17l0 20c-1 8-8 15-17 15-9 0-16-8-16-17l1-20c0-8 8-15 16-15 0 0 1 0 1 0z m3-76c9 0 16 8 15 17l-1 29c0 9-8 16-16 16-9-1-16-8-16-17l1-29c1-9 8-16 16-16 1 0 1 0 1 0z m3-66c9 0 16 7 15 16l-1 20c0 9-8 16-16 16-9-1-16-8-16-17l1-20c0-9 7-15 16-15 0 0 1 0 1 0z m-109 156l2 20c1 9-5 17-14 18-9 1-17-5-18-14l-2-20c-2-9 5-17 14-18 0 0 1 0 2 0 8 0 15 6 16 14z m-10-75l4 29c1 9-5 17-14 18-9 1-17-5-18-14l-4-29c-1-9 6-17 14-18 1 0 2 0 2 0 8 0 15 6 16 14z m-8-66l3 20c1 8-6 16-14 18-9 1-17-6-18-14l-3-20c-1-9 5-17 14-18 1 0 2 0 2 0 8 0 15 6 16 14z m183 127c9 1 16 9 14 18l-2 20c-1 9-9 15-18 14-9-1-15-9-14-18l2-20c1-8 8-14 16-14 1 0 2 0 2 0z m10-75c9 1 15 9 14 18l-4 29c-1 9-9 15-18 14-9-1-15-9-14-18l4-29c1-8 8-14 16-14 0 0 1 0 2 0z m8-66c9 1 15 9 14 18l-3 20c-1 8-9 15-18 14-8-2-15-10-14-18l3-20c1-8 8-14 16-14 0 0 1 0 2 0z"/>
<glyph glyph-name="whatsapp-2" unicode="&#113;" d="M104 103c4 12 8 23 12 34 4 14 9 29 14 43 1 2 1 4 0 5-41 72-17 163 55 204 18 11 38 17 59 19 62 6 119-25 147-80 13-26 19-53 16-82-7-59-38-101-93-124-42-18-84-14-125 6-2 1-3 1-6 1-25-9-50-17-76-25 0 0-1 0-3-1z m38 37c1 0 1 0 2 1 14 4 28 8 41 13 4 1 6 1 9-1 29-18 60-23 93-15 71 16 113 89 91 159-21 71-100 107-168 78-71-30-98-116-58-181 4-6 4-11 2-17-4-12-8-24-12-37z m48 134c4-9 10-17 15-25 20-27 46-47 79-56 10-3 21-4 32 0 12 6 18 15 18 29 0 2 0 4-2 5-10 5-20 10-30 14-4 2-6 1-9-2-3-4-5-7-8-11-4-5-7-5-12-3-21 8-36 23-48 42-2 4-2 5 1 9 2 3 5 6 8 9 2 3 2 6 1 10-4 8-7 16-11 25-2 6-5 8-11 8-6 0-11-1-15-6-8-8-12-17-12-29 0-6 2-13 4-19z"/>
<glyph glyph-name="bathroom-2" unicode="&#114;" d="M506 231c0-12-10-21-21-21l-458 0c-11 0-21 9-21 21 0 12 10 21 21 21l394 0 0 175c0 12-10 21-21 21-5 0-10-2-13-5 8-15 6-34-4-49 0-1-1-2-1-3-3-2-7-2-10 1l-59 59c-3 3-3 7-1 10 1 0 2 1 3 2 16 11 38 11 54 0 9 7 19 11 31 11 26 0 47-21 47-47l0-175 38 0c11 0 21-9 21-21z m-357-168c-2-4-4-9-4-13 0-5 1-9 3-12l47 0c2 3 3 7 3 12 0 3-1 7-2 10l120 0c-1-3-2-7-2-10 0-5 1-9 3-12l47 0c2 3 3 7 3 12 0 4-2 9-4 13 64 12 113 65 120 131l-454 0c7-66 56-119 120-131z m157 235c1 0 2 0 3 0 4 0 8 3 10 7 1 3 2 7 3 10 2 5-1 11-6 13-5 2-11-1-13-6-1-4-2-7-4-11-1-5 2-11 7-13z m26 42c2 3 3 7 5 10 3 5 1 11-4 13-5 3-11 1-14-4-2-4-3-7-5-10-2-6 0-11 5-14 1 0 3-1 4-1 4 0 8 2 9 6z m18 33c2 3 4 6 6 9 4 5 2 11-2 14-5 3-11 2-14-3-2-3-5-6-7-9-3-5-1-11 4-14 1-1 3-2 5-2 3 0 7 2 8 5z m-68-18c2-1 4-1 5-1 4-1 7 1 9 4 2 3 5 7 8 10 3 4 2 11-2 14-4 4-11 3-14-2-3-3-6-7-8-10-4-5-3-11 2-15z m-7-10c-5 2-11 1-14-4-2-4-4-8-6-12-3-5-1-11 4-14 2-1 3-1 4-1 4 0 8 2 10 5 2 4 4 8 6 12 2 5 1 11-4 14z m45 71c-3-3-6-7-10-10-3-4-3-10 1-14 1-2 4-3 6-3 3 0 6 1 8 3 3 3 6 6 9 9 4 4 4 10 0 14-3 4-10 4-14 1z m-95-62c2-1 4-2 7-2 3 0 6 1 8 4 2 3 5 6 7 9 4 4 3 11-1 14-4 4-10 4-14-1-3-3-6-6-8-10-4-4-3-10 1-14z m71 58c2 0 4 1 6 2 3 2 6 5 10 7 4 3 6 9 3 14-3 4-9 6-14 3-4-2-7-5-11-7-5-4-6-10-2-14 1-3 5-5 8-5z m-34-27c2 0 4 0 6 2 3 3 6 6 9 8 5 4 5 10 1 15-3 4-10 4-14 1-3-3-6-6-9-9-4-4-5-10-1-14 2-2 5-3 8-3z"/>
<glyph glyph-name="bedroom-1" unicode="&#115;" d="M453 336c-12 0-22-10-22-22l0-83-350 0 0 144c0 12-10 22-22 22-12 0-21-10-21-22l0-260 43 0 0 72 350 0 0-72 43 0 0 199c0 12-9 22-21 22z m-337-90l76 0c1 0 2 0 4 1 1-1 3-1 4-1 11 0 19 9 19 19l0 52c0 10-8 19-19 19-10 0-19-9-19-19l0-32-65 0c-10 0-19-9-19-20 0-10 9-19 19-19z m50 91c0-19-15-35-34-35-19 0-35 16-35 35 0 19 16 34 35 34 19 0 34-15 34-34z m252-20c0 10-8 19-19 19l-161 0 0-90 180 0z"/>
<glyph glyph-name="claro-1" unicode="&#116;" d="M148 271c-7 0-13 0-20 0 0 0-1 1-2 2-4 8-11 14-20 16-20 5-35-11-37-26-2-11 1-22 9-30 14-14 35-12 46 4 1 1 1 1 2 2 1 3 3 4 5 4 6-1 11 0 17 0-1-3-1-5-2-7-8-18-20-29-40-32-17-2-32 4-44 17-7 8-11 17-12 27-3 26 7 47 29 58 23 10 49 3 63-21 2-3 3-6 4-9 1-1 1-3 2-5z m60-10c2-1 2 0 3 2 0 3 2 6 6 8 5 2 11 2 16-1 3-1 4-5 3-8 0-3-2-5-5-6-2 0-4 0-6-1-7-1-14-2-21-4-7-3-12-8-14-16 0-3-1-7-1-11 1-11 7-18 18-20 5-1 11-1 17 1 4 1 8 4 13 6 0-2 0-4 0-6 0-1 1-2 2-2 5 0 10 0 15 0 3 0 3 0 3 3 0 19 0 37 0 56 0 2 0 4 0 5-1 7-4 14-10 17-13 7-27 7-41 2-9-4-16-15-15-25 6 0 11 0 17 0z m27-31c-1-8-12-14-20-12-5 2-8 8-6 14 1 4 4 6 8 7 3 1 7 2 11 3 3 1 5 2 9 3-1-5-1-10-2-15z m145-21c23 15 26 49 6 69-15 15-41 15-56-1-11-11-14-24-12-39 3-19 22-37 40-35 8-1 15 2 22 6z m-2 27c-7-13-22-17-33-8-7 6-10 14-8 23 2 9 7 15 16 17 0 0 1 0 1 0 2 0 3 0 4 0 15 1 27-16 20-32z m-108-33c7 0 13 0 19 0 0 1 0 2 0 3 0 12 0 24 0 36 0 3 1 6 1 9 1 8 8 15 16 17 3 0 6 0 9 0 0 7 0 14 0 21-11-1-19-5-26-14 0 0 0 1 0 1 0 3 0 6 0 9-7 0-13 0-19 0 0-27 0-54 0-82z m-112 0c7 0 13 0 19 0 0 36 0 71 0 107-6 0-12 0-19 0 0-36 0-71 0-107z m232 96c4-5 8-9 12-13 16 16 32 33 48 49-4 5-8 9-13 13-16-16-31-33-47-49z m73-34c-17 0-34 0-52 0 0-6 0-12 0-18 18 0 35 0 52 0 0 6 0 12 0 18z m-111 41c6 0 11 0 17 0 0 17 0 35 0 52-6 0-11 0-17 0 0-17 0-35 0-52z"/>
<glyph glyph-name="code49-1" unicode="&#117;" d="M162 297c-22 0-40-19-40-41 0-22 18-41 40-41 23 0 41 19 41 41 0 22-18 41-41 41z m0-67c-14 0-26 11-26 26 0 15 12 27 26 27 15 0 27-12 27-27 0-15-12-26-27-26z m73 67c-9 0-19 0-29 0l0-82c10 0 20 0 29 0 23 0 41 19 41 41 0 22-18 41-41 41z m0-67l-15 0 0 52 15 1c15 0 27-12 27-27 0-15-12-26-27-26z m59 0l0 19 25 0 0 14-25 0 0 19 36 0 0 15-51 0 0-82 51 0 0 15z m95 111c-29 0-55-14-70-37l18 0c13 14 32 23 52 23 39 0 71-32 71-71 0-15-5-29-13-41l17 0c7 12 10 26 10 41 0 47-38 85-85 85z m-285-92c-3-11-14-19-26-19-14 0-26 11-26 26 0 15 12 27 26 27 12 0 23-9 26-20l14 0c-3 19-20 34-40 34-22 0-40-19-40-41 0-22 18-41 40-41 20 0 37 15 40 34z m277-2l0 50-1-1 0 1-15 0-31-54 0-10 33 0 0-18 14 0 0 18 6 0 0 14z m-14 0l-15 0 15 26z m74-39c-13-14-31-23-52-23-20 0-39 9-52 23l-18 0c15-23 41-37 70-37 29 0 55 14 70 37z m-11 85c-14 8-31 3-39-11-9-14-4-32 10-40 5-2 10-4 15-4l-13-23 16 0 24 41c5 14 0 29-13 37z m-14-41c-9 0-16 7-16 16 0 8 7 15 16 15 8 0 15-7 15-15 0-9-7-16-15-16z"/>
<glyph glyph-name="code49-2" unicode="&#118;" d="M256 474c121 0 218-97 218-218 0-38-9-73-26-104l-43 0c21 30 33 65 33 104 0 100-82 182-182 182-100 0-182-82-182-182 0-39 12-74 33-104l-43 0c-17 31-26 66-26 104 0 121 97 218 218 218z m105-124c-35 21-81 8-102-27-20-36-8-81 28-102 12-7 26-10 39-10l-34-59 41 0 60 105c14 34 1 74-32 93z m75-218l-47 0c-33-36-80-58-133-58-53 0-100 22-133 58l-47 0c40-57 105-94 180-94 75 0 140 37 180 94z m-202 228l-1 0 1 0 0-127 16 0 0-36-16 0 0-45-36 0 0 45-84 0 0 26 79 137z m-35-60l-39-68 39 0z m164-14c0-22-17-40-39-40-22 0-39 18-39 40 0 21 17 39 39 39 22 0 39-18 39-39z"/>
<glyph glyph-name="garage-1" unicode="&#119;" d="M449 310l-7 0-47 114c-3 8-11 14-20 14l-238 0c-9 0-17-6-20-14l-47-114-7 0c-14 0-25-11-25-25l0-148 34 0 0-38c0-14 11-25 25-25l16 0c14 0 25 11 25 25l0 38 236 0 0-38c0-14 11-25 25-25l16 0c14 0 25 11 25 25l0 38 34 0 0 148c0 14-11 25-25 25z m-344-120c-18 0-33 15-33 33 0 18 15 33 33 33 18 0 33-15 33-33 0-18-15-33-33-33z m12 120l35 84 208 0 35-84z m290-120c-18 0-33 15-33 33 0 18 15 33 33 33 18 0 33-15 33-33 0-18-15-33-33-33z"/>
<glyph glyph-name="garage-2" unicode="&#98;" d="M434 255l-6 0-43 105c-4 8-11 13-19 13l-220 0c-8 0-15-5-18-13l-44-105-6 0c-13 0-23-11-23-23l0-137 32 0 0-34c0-13 10-23 23-23l14 0c13 0 23 10 23 23l0 34 218 0 0-34c0-13 10-23 23-23l14 0c13 0 23 10 23 23l0 34 32 0 0 137c0 12-10 23-23 23z m-317-111c-17 0-30 14-30 31 0 17 13 30 30 30 17 0 30-13 30-30 0-17-13-31-30-31z m11 111l32 77 192 0 32-77z m267-111c-17 0-30 14-30 31 0 17 13 30 30 30 17 0 30-13 30-30 0-17-13-31-30-31z m68 229l-207 43-207-43-12 55 219 46 219-46z"/>
</font>
</defs>
</svg>
